<?xml version="1.0" encoding="UTF-8"?>
<svg xmlns="http://www.w3.org/2000/svg" xmlns:xlink="http://www.w3.org/1999/xlink" version="1.2" >
<font id="Yekan-Numbers Regular">
<font-face  font-family="Yekan-Numbers" units-per-em="2048" ascent="2063" descent="-1044" font-style="normal" font-weight="400" font-stretch="normal" cap-height="0" x-height="0" underline-position="-900" underline-thickness="100" />
<missing-glyph  horiz-adv-x="1024" d="" />
<glyph glyph-name="0" unicode="0" horiz-adv-x="1210" d="M609 644 Q733 644 829.5 542 Q926 440 926 320 Q926 200 825.5 111.5 Q725 23 603.5 23 Q482 23 383 111.5 Q284 200 284 324.5 Q284 449 384.5 546.5 Q485 644 609 644 Z M609 153 Q678 153 729.5 204.5 Q781 256 781 325 Q781 394 727 447 Q673 500 601.5 500 Q530 500 477 444 Q424 388 424 317.5 Q424 247 482 200 Q540 153 609 153 Z " />
<glyph glyph-name="&amp;#x660;" unicode="&#x660;" horiz-adv-x="1210" d="M609 644 Q733 644 829.5 542 Q926 440 926 320 Q926 200 825.5 111.5 Q725 23 603.5 23 Q482 23 383 111.5 Q284 200 284 324.5 Q284 449 384.5 546.5 Q485 644 609 644 Z M609 153 Q678 153 729.5 204.5 Q781 256 781 325 Q781 394 727 447 Q673 500 601.5 500 Q530 500 477 444 Q424 388 424 317.5 Q424 247 482 200 Q540 153 609 153 Z " />
<glyph glyph-name="&amp;#x6f0;" unicode="&#x6f0;" horiz-adv-x="1210" d="M609 644 Q733 644 829.5 542 Q926 440 926 320 Q926 200 825.5 111.5 Q725 23 603.5 23 Q482 23 383 111.5 Q284 200 284 324.5 Q284 449 384.5 546.5 Q485 644 609 644 Z M609 153 Q678 153 729.5 204.5 Q781 256 781 325 Q781 394 727 447 Q673 500 601.5 500 Q530 500 477 444 Q424 388 424 317.5 Q424 247 482 200 Q540 153 609 153 Z " />
<glyph glyph-name="1" unicode="1" horiz-adv-x="1210" d="M736 -200 L561 -200 L561 351 Q561 627 475 913 L646 969 L708 728 Q708 722 722 612 Q736 502 736 351 L736 -200 Z " />
<glyph glyph-name="&amp;#x661;" unicode="&#x661;" horiz-adv-x="1210" d="M736 -200 L561 -200 L561 351 Q561 627 475 913 L646 969 L708 728 Q708 722 722 612 Q736 502 736 351 L736 -200 Z " />
<glyph glyph-name="&amp;#x6f1;" unicode="&#x6f1;" horiz-adv-x="1210" d="M736 -200 L561 -200 L561 351 Q561 627 475 913 L646 969 L708 728 Q708 722 722 612 Q736 502 736 351 L736 -200 Z " />
<glyph glyph-name="2" unicode="2" horiz-adv-x="1210" d="M908 971 Q958 725 958 633 Q958 541 872 473 Q786 405 696.5 405 Q607 405 516 464 L519 -200 L338 -200 L338 325 Q338 682 253 913 L426 969 L498 674 Q525 561 631 561 Q705 562 738 609 Q771 656 771 693 Q771 698 770 703 L741 918 Q796 936 908 971 Z " />
<glyph glyph-name="&amp;#x662;" unicode="&#x662;" horiz-adv-x="1210" d="M908 971 Q958 725 958 633 Q958 541 872 473 Q786 405 696.5 405 Q607 405 516 464 L519 -200 L338 -200 L338 325 Q338 682 253 913 L426 969 L498 674 Q525 561 631 561 Q705 562 738 609 Q771 656 771 693 Q771 698 770 703 L741 918 Q796 936 908 971 Z " />
<glyph glyph-name="&amp;#x6f2;" unicode="&#x6f2;" horiz-adv-x="1210" d="M908 971 Q958 725 958 633 Q958 541 872 473 Q786 405 696.5 405 Q607 405 516 464 L519 -200 L338 -200 L338 325 Q338 682 253 913 L426 969 L498 674 Q525 561 631 561 Q705 562 738 609 Q771 656 771 693 Q771 698 770 703 L741 918 Q796 936 908 971 Z " />
<glyph glyph-name="3" unicode="3" horiz-adv-x="1210" d="M1161 654 Q1161 556 1081 488.5 Q1001 421 895.5 421 Q790 421 680 545 Q680 415 491 415 Q397 415 314 461 L315 -200 L140 -200 L140 325 Q140 659 50 913 L228 969 L295 674 Q321 561 435 561 Q494 562 534 603 Q574 644 574 687 Q574 695 573 703 L539 918 L708 980 Q749 767 749 676 Q749 665 746 613 Q792 556 852.5 556 Q913 556 951.5 593.5 Q990 631 990 683 Q990 693 989 703 L960 918 L1126 969 L1160 678 Q1161 667 1161 654 Z " />
<glyph glyph-name="&amp;#x663;" unicode="&#x663;" horiz-adv-x="1210" d="M1161 654 Q1161 556 1081 488.5 Q1001 421 895.5 421 Q790 421 680 545 Q680 415 491 415 Q397 415 314 461 L315 -200 L140 -200 L140 325 Q140 659 50 913 L228 969 L295 674 Q321 561 435 561 Q494 562 534 603 Q574 644 574 687 Q574 695 573 703 L539 918 L708 980 Q749 767 749 676 Q749 665 746 613 Q792 556 852.5 556 Q913 556 951.5 593.5 Q990 631 990 683 Q990 693 989 703 L960 918 L1126 969 L1160 678 Q1161 667 1161 654 Z " />
<glyph glyph-name="&amp;#x6f3;" unicode="&#x6f3;" horiz-adv-x="1210" d="M1161 654 Q1161 556 1081 488.5 Q1001 421 895.5 421 Q790 421 680 545 Q680 415 491 415 Q397 415 314 461 L315 -200 L140 -200 L140 325 Q140 659 50 913 L228 969 L295 674 Q321 561 435 561 Q494 562 534 603 Q574 644 574 687 Q574 695 573 703 L539 918 L708 980 Q749 767 749 676 Q749 665 746 613 Q792 556 852.5 556 Q913 556 951.5 593.5 Q990 631 990 683 Q990 693 989 703 L960 918 L1126 969 L1160 678 Q1161 667 1161 654 Z " />
<glyph glyph-name="4" unicode="4" horiz-adv-x="1210" d="M1075 466 Q881 376 718 376 Q555 376 394 446 L396 -200 L221 -200 L221 338 Q221 602 135 913 L304 969 Q355 781 383 618 L475 575 Q475 978 803 978 Q905 978 1020 921 L960 766 Q886 820 812 820 Q738 820 683.5 771.5 Q629 723 629 651 Q629 534 764 534 Q866 534 1019 610 L1075 466 Z " />
<glyph glyph-name="&amp;#x664;" unicode="&#x664;" horiz-adv-x="1210" d="M1075 466 Q881 376 718 376 Q555 376 394 446 L396 -200 L221 -200 L221 338 Q221 602 135 913 L304 969 Q355 781 383 618 L475 575 Q475 978 803 978 Q905 978 1020 921 L960 766 Q886 820 812 820 Q738 820 683.5 771.5 Q629 723 629 651 Q629 534 764 534 Q866 534 1019 610 L1075 466 Z " />
<glyph glyph-name="&amp;#x6f4;" unicode="&#x6f4;" horiz-adv-x="1210" d="M1075 466 Q881 376 718 376 Q555 376 394 446 L396 -200 L221 -200 L221 338 Q221 602 135 913 L304 969 Q355 781 383 618 L475 575 Q475 978 803 978 Q905 978 1020 921 L960 766 Q886 820 812 820 Q738 820 683.5 771.5 Q629 723 629 651 Q629 534 764 534 Q866 534 1019 610 L1075 466 Z " />
<glyph glyph-name="5" unicode="5" horiz-adv-x="1210" d="M1163 74 Q1162 -71 1060 -156 Q958 -241 818 -241 Q678 -241 586 -171 Q460 -244 332 -244 Q204 -244 126 -140 Q48 -36 48 104 Q48 324 225 543 L421 784 L351 834 L466 971 Q1163 451 1163 74 Z M974 118 Q974 330 554 678 Q236 344 236 121 Q236 -48 388 -48 Q527 -48 528 110 Q526 121 519 178 L696 178 Q708 154 708 89 Q708 24 689 -11 Q742 -45 806 -45 Q974 -45 974 118 Z " />
<glyph glyph-name="&amp;#x665;" unicode="&#x665;" horiz-adv-x="1210" d="M1163 74 Q1162 -71 1060 -156 Q958 -241 818 -241 Q678 -241 586 -171 Q460 -244 332 -244 Q204 -244 126 -140 Q48 -36 48 104 Q48 324 225 543 L421 784 L351 834 L466 971 Q1163 451 1163 74 Z M974 118 Q974 330 554 678 Q236 344 236 121 Q236 -48 388 -48 Q527 -48 528 110 Q526 121 519 178 L696 178 Q708 154 708 89 Q708 24 689 -11 Q742 -45 806 -45 Q974 -45 974 118 Z " />
<glyph glyph-name="&amp;#x6f5;" unicode="&#x6f5;" horiz-adv-x="1210" d="M1163 74 Q1162 -71 1060 -156 Q958 -241 818 -241 Q678 -241 586 -171 Q460 -244 332 -244 Q204 -244 126 -140 Q48 -36 48 104 Q48 324 225 543 L421 784 L351 834 L466 971 Q1163 451 1163 74 Z M974 118 Q974 330 554 678 Q236 344 236 121 Q236 -48 388 -48 Q527 -48 528 110 Q526 121 519 178 L696 178 Q708 154 708 89 Q708 24 689 -11 Q742 -45 806 -45 Q974 -45 974 118 Z " />
<glyph glyph-name="6" unicode="6" horiz-adv-x="1210" d="M971 483 Q899 419 831 336 L680 151 Q563 8 419 -245 L261 -149 Q346 14 588 331 Q431 332 335 416 Q239 500 239 648 Q239 796 327.5 889.5 Q416 983 556 983 Q655 983 781 918 L724 758 Q648 798 580 798 Q512 798 465.5 756 Q419 714 419 649 Q419 505 583 505 Q694 505 826 590 L971 483 Z " />
<glyph glyph-name="&amp;#x666;" unicode="&#x666;" horiz-adv-x="1210" d="M971 483 Q899 419 831 336 L680 151 Q563 8 419 -245 L261 -149 Q346 14 588 331 Q431 332 335 416 Q239 500 239 648 Q239 796 327.5 889.5 Q416 983 556 983 Q655 983 781 918 L724 758 Q648 798 580 798 Q512 798 465.5 756 Q419 714 419 649 Q419 505 583 505 Q694 505 826 590 L971 483 Z " />
<glyph glyph-name="&amp;#x6f6;" unicode="&#x6f6;" horiz-adv-x="1210" d="M971 483 Q899 419 831 336 L680 151 Q563 8 419 -245 L261 -149 Q346 14 588 331 Q431 332 335 416 Q239 500 239 648 Q239 796 327.5 889.5 Q416 983 556 983 Q655 983 781 918 L724 758 Q648 798 580 798 Q512 798 465.5 756 Q419 714 419 649 Q419 505 583 505 Q694 505 826 590 L971 483 Z " />
<glyph glyph-name="7" unicode="7" horiz-adv-x="1210" d="M1109 893 L960 638 Q888 516 814 334 Q740 152 674 -200 L534 -200 Q489 106 392 339 Q295 572 104 890 L261 971 Q427 688 494 509 Q500 493 528 390 L598 131 L618 129 Q691 492 811 710 L955 971 Q1025 934 1109 893 Z " />
<glyph glyph-name="&amp;#x667;" unicode="&#x667;" horiz-adv-x="1210" d="M1109 893 L960 638 Q888 516 814 334 Q740 152 674 -200 L534 -200 Q489 106 392 339 Q295 572 104 890 L261 971 Q427 688 494 509 Q500 493 528 390 L598 131 L618 129 Q691 492 811 710 L955 971 Q1025 934 1109 893 Z " />
<glyph glyph-name="&amp;#x6f7;" unicode="&#x6f7;" horiz-adv-x="1210" d="M1109 893 L960 638 Q888 516 814 334 Q740 152 674 -200 L534 -200 Q489 106 392 339 Q295 572 104 890 L261 971 Q427 688 494 509 Q500 493 528 390 L598 131 L618 129 Q691 492 811 710 L955 971 Q1025 934 1109 893 Z " />
<glyph glyph-name="8" unicode="8" horiz-adv-x="1210" d="M1109 -113 Q1026 -150 953 -194 Q788 88 721 270 Q709 302 683 404 L618 649 L598 651 Q562 486 502 298 Q442 110 259 -194 Q171 -145 101 -110 Q300 222 390 438 Q480 654 536 980 L676 978 Q749 532 938 185 Q994 81 1109 -113 Z " />
<glyph glyph-name="&amp;#x668;" unicode="&#x668;" horiz-adv-x="1210" d="M1109 -113 Q1026 -150 953 -194 Q788 88 721 270 Q709 302 683 404 L618 649 L598 651 Q562 486 502 298 Q442 110 259 -194 Q171 -145 101 -110 Q300 222 390 438 Q480 654 536 980 L676 978 Q749 532 938 185 Q994 81 1109 -113 Z " />
<glyph glyph-name="&amp;#x6f8;" unicode="&#x6f8;" horiz-adv-x="1210" d="M1109 -113 Q1026 -150 953 -194 Q788 88 721 270 Q709 302 683 404 L618 649 L598 651 Q562 486 502 298 Q442 110 259 -194 Q171 -145 101 -110 Q300 222 390 438 Q480 654 536 980 L676 978 Q749 532 938 185 Q994 81 1109 -113 Z " />
<glyph glyph-name="9" unicode="9" horiz-adv-x="1210" d="M933 -200 L758 -200 L758 415 Q649 379 538 379 Q427 379 353 450 Q279 521 279 655 Q280 789 366 886 Q452 983 590 983 Q675 983 775 924 Q933 831 933 385 L933 -200 Z M739 599 Q732 645 713 733 Q689 797 640 809 Q636 810 581 820 Q513 820 473 772 Q433 724 433 655 Q433 536 554 536 Q630 536 739 599 Z " />
<glyph glyph-name="&amp;#x669;" unicode="&#x669;" horiz-adv-x="1210" d="M933 -200 L758 -200 L758 415 Q649 379 538 379 Q427 379 353 450 Q279 521 279 655 Q280 789 366 886 Q452 983 590 983 Q675 983 775 924 Q933 831 933 385 L933 -200 Z M739 599 Q732 645 713 733 Q689 797 640 809 Q636 810 581 820 Q513 820 473 772 Q433 724 433 655 Q433 536 554 536 Q630 536 739 599 Z " />
<glyph glyph-name="&amp;#x6f9;" unicode="&#x6f9;" horiz-adv-x="1210" d="M933 -200 L758 -200 L758 415 Q649 379 538 379 Q427 379 353 450 Q279 521 279 655 Q280 789 366 886 Q452 983 590 983 Q675 983 775 924 Q933 831 933 385 L933 -200 Z M739 599 Q732 645 713 733 Q689 797 640 809 Q636 810 581 820 Q513 820 473 772 Q433 724 433 655 Q433 536 554 536 Q630 536 739 599 Z " />
<glyph glyph-name="middot" unicode="&#xb7;" horiz-adv-x="1024" d="" />
</font>
</svg>
